imdb
rating

 
Kubo and the Two Strings

Kubo and the Two Strings (2016)

Adventure, Animation, Fantasy, Family

Full description
quality   fullhd web-dl x264 hd bd h264

Kubo i dwie struny - Kubo and the Two Strings *2016*[1080p.DTS.AC3 5.1.BDRip.x264-LEON 345] [Isohunt.to]

Size 8.161 GB   172 seeders     Added 2017-01-08 13:58:54

Kubo i dwie struny - Kubo and the Two Strings *2016*1080p.BDRip.AC3 5.1.Leon345
 ===================================================
 Dopasowane rozmiarem pod DVD9 ( do nagrania na płytke jeśli jeszcze ktoś to robi 
 ===================================================

[img]image[/img]

 gatunek: Animacja,Familijny,Fantasy
 produkcja: USA
 premiera: 2 grudnia 2016 (Polska) 13 sierpnia 2016 (świat)
 reżyseria: Travis Knight
 scenariusz: Marc Haimes,Chris Butler

http://imdb.com/title/tt4302938/

 Kubo jest dobrym, pokornym chłopcem, który u boku matki mieszka w skromnej wiosce na końcu świata. Każdy dzień toczy się tym samym spokojnym rytmem - do czasu, kiedy chłopca odwiedza duch przeszłości, który zmienia jego przeznaczenie. Aby przetrwać, Kubo musi odnaleźć magiczną zbroję należącą do jego ojca - największego samuraja, jakiego kiedykolwiek nosiła Ziemia. W poszukiwaniach towarzyszą mu dobre duchy i pradawne bóstwa, które wspierają go magicznymi mocami. Tak Kubo wyrusza w fascynującą, pełną niebezpieczeństw podróż śladami swej rodziny. Podróż ta pozwoli mu poczuć dumę z tego, kim jest i uwierzyć, że możliwe jest wszystko. 

 Obsada:

 Charlize Theron...Monkey (voice)
 Art Parkinson...Kubo (voice)
 Ralph Fiennes...Moon King (voice)
 George Takei...Hosato (voice)
 Cary-Hiroyuki Tagawa...Hashi (voice)
 Brenda Vaccaro...Kameyo (voice)
 Rooney Mara...The Sisters (voice)
 Matthew McConaughey...Beetle (voice)

 General

 Format : Matroska
 Format version : Version 2
 File size : 7.60 GiB
 Duration : 1h 41mn
 Overall bit rate : 10.7 Mbps
 Movie name : KUBO.TWO.STRINGS.2016.BDRip.1080p.Leon345
 Writing application : mkvmerge v5.7.0 ('The Whirlwind') built on Jul 8 2012 20:08:51
 Writing library : libebml v1.2.3 + libmatroska v1.3.0

 Video
 ID : 1
 Format : AVC
 Format/Info : Advanced Video Codec
 Format profile : [email protected]
 Format settings, CABAC : Yes
 Format settings, ReFrames : 4 frames
 Codec ID : V_MPEG4/ISO/AVC
 Duration : 1h 41mn
 Bit rate : 8 849 Kbps
 Width : 1 920 pixels
 Height : 1 080 pixels
 Display aspect ratio : 16:9 (OAR 2.39:1)
 Frame rate mode : Constant
 Frame rate : 23.976 (24000/1001) fps
 Color space : YUV
 Chroma subsampling : 4:2:0
 Bit depth : 8 bits
 Scan type : Progressive
 Bits/(Pixel*Frame) : 0.178
 Stream size : 6.14 GiB (81%)
 Writing library : x264 
 Encoding settings : cabac=1 / ref=4 / deblock=1:-1:-1 / rc=2pass
 Default : Yes
 Forced : No

 Audio #1
 ID : 2
 Format : AC-3
 Format/Info : Audio Coding 3
 Mode extension : CM (complete main)
 Format settings, Endianness : Big
 Codec ID : A_AC3
 Duration : 1h 41mn
 Bit rate mode : Constant
 Bit rate : 448 Kbps
 Channel(s) : 6 channels
 Channel positions : Front: L C R, Side: L R, LFE
 Sampling rate : 48.0 KHz
 Frame rate : 31.250 fps (1536 spf)
 Compression mode : Lossy
 Stream size : 326 MiB (4%)
 Title : AC3 5.1 Dubbing PL
 Language : Polish
 Default : Yes
 Forced : No

 Audio #2
 ID : 3
 Format : DTS
 Format/Info : Digital Theater Systems
 Mode : 16
 Format settings, Endianness : Big
 Codec ID : A_DTS
 Duration : 1h 41mn
 Bit rate mode : Constant
 Bit rate : 755 Kbps
 Channel(s) : 6 channels
 Channel positions : Front: L C R, Side: L R, LFE
 Sampling rate : 48.0 KHz
 Frame rate : 93.750 fps (512 spf)
 Bit depth : 24 bits
 Compression mode : Lossy
 Stream size : 548 MiB (7%)
 Title : DTS 5.1 Dubbing PL
 Language : Polish
 Default : No
 Forced : No

 Audio #3
 ID : 4
 Format : AC-3
 Format/Info : Audio Coding 3
 Mode extension : CM (complete main)
 Format settings, Endianness : Big
 Codec ID : A_AC3
 Duration : 1h 41mn
 Bit rate mode : Constant
 Bit rate : 640 Kbps
 Channel(s) : 6 channels
 Channel positions : Front: L C R, Side: L R, LFE
 Sampling rate : 48.0 KHz
 Frame rate : 31.250 fps (1536 spf)
 Compression mode : Lossy
 Stream size : 465 MiB (6%)
 Title : AC3 5.1 ENG
 Language : English
 Default : No
 Forced : No

 Text #1
 ID : 5
 Format : UTF-8
 Codec ID : S_TEXT/UTF8
 Codec ID/Info : UTF-8 Plain Text
 Title : napisy srt. PL
 Language : Polish
 Default : No
 Forced : No

 Text #2
 ID : 6
 Format : UTF-8
 Codec ID : S_TEXT/UTF8
 Codec ID/Info : UTF-8 Plain Text
 Title : napisy srt. ENG
 Language : English
 Default : No
 Forced : No

 Text #3
 ID : 7
 Format : PGS
 Muxing mode : zlib
 Codec ID : S_HDMV/PGS
 Codec ID/Info : Picture based subtitle format used on BDs/HD-DVDs
 Title : napisy Bluray PL
 Language : Polish
 Default : No
 Forced : No

 Text #4
 ID : 8
 Format : PGS
 Muxing mode : zlib
 Codec ID : S_HDMV/PGS
 Codec ID/Info : Picture based subtitle format used on BDs/HD-DVDs
 Title : napisy Bluray ENG
 Language : English
 Default : No
 Forced : No

 A/V-BD3D CEE
KUBO.TWO.STRINGS.2016.BDRip.1080p.Leon345.mkv 8.16 GB
kubo3.jpg 166.743 KB
Torrent downloaded from agusiq-torrents.pl upload Leon345.txt 3.903 KB
Gathering some info...

Register and log in Isohunt and see no captcha anymore!

4000 symbols left
Hash 01aad1281a94e5e828ed3173b82d399dbf9fa55a

Related torrents for "Kubo i dwie struny - Kubo and the Two Strings *2016*[1080p.DTS.AC3 5.1.BDRip.x264-LEON 345] [Isohunt.to]"

Torrent search:

x264 fullhd bd 2016